Foro Adventista - abc Mujer Adventista
Saludos queridos visitantes, te damos la bienvenida a este foro,abordamos temas que no estan disponibles en otros sitios adventistas pero que consideramos de interes,por ahora tenemos nuestros foros y subforos visibles solo para usuarios registrados, sugerimos registrarte para poder acceder a la informacion y recursos,Dios les guarde

Documental - La Gripe Asesina

Ver el tema anterior Ver el tema siguiente Ir abajo

Documental - La Gripe Asesina

Mensaje por HECTOR JAVIER el Mar Sep 20, 2011 1:36 am

Documental - La Gripe Asesina

Video

Format: MPEG-4 Visual
Format profile: Advanced Simple@L5
Format settings, BVOP: Yes
Format settings, QPel: No
Format settings, GMC: No warppoints
Format settings, Matrix: Custom
Codec ID: XVID
Codec ID/Hint: XviD
Duration: 52mn 39s
Bit rate: 1 459 Kbps
Width: 640 pixels
Height: 480 pixels
Display aspect ratio: 4:3
Frame rate: 25.000 fps
Resolution: 24 bits
Colorimetry: 4:2:0
Scan type: Progressive
Bits/(Pixel*Frame): 0.190
Stream size: 549 MiB (92%)
Writing library: XviD 1.2.1 (UTC 2008-12-04)

Audio

Format: MPEG Audio
Format version: Version 1
Format profile: Layer 3
Codec ID: 55
Codec ID/Hint: MP3
Duration: 52mn 39s
Bit rate mode: Constant
Bit rate: 128 Kbps
Channel(s): 2 channels
Sampling rate: 48.0 KHz
Resolution: 16 bits
Stream size: 48.2 MiB (8%)
Alignment: Aligned on interleaves
Interleave, duration: 80 ms (2.00 video frames)
Interleave, preload duration: 504 ms

Información del documental

Idioma: Español
Año: 2006
Nacionalidad: Francia.
Productora: Institut National de L Audiovisuel , YLE.
Director: Christophe Weber
Duración: 52 min.
Rippeo: SATRip
Ripper: Especiales
Tamaño: 600 MBs.

SINOPSIS:

El H1N1, más conocido como virus de la gripe española, causó entre los años 1918 y 1919 más muertes que la Primera Guerra Mundial. Durante este período de tiempo la pandemia se extendió de forma generalizada afectando a la población de medio mundo. Unos cuarenta millones de personas se contaron entre las víctimas afectadas por el mortal virus.

De la mano de médicos de diferentes disciplinas y países, expertos en los últimos avance científicos, Odisea echa la vista atrás para revivir una época marcada por una de las pandemias más letales de la historia de la humanidad. A través de un valioso material de archivo, reconstrucciones, imágenes diseñadas por ordenador y entrevistas, profundizaremos en este fenómeno de dramáticas consecuencias para entender dónde surgió el brote de gripe, qué lo motivó y el por qué de su incontrolable propagación


Wupload:

[Tienes que estar registrado y conectado para ver este vínculo]
[Tienes que estar registrado y conectado para ver este vínculo]
[Tienes que estar registrado y conectado para ver este vínculo]

Uploaded:

[Tienes que estar registrado y conectado para ver este vínculo]
[Tienes que estar registrado y conectado para ver este vínculo]
[Tienes que estar registrado y conectado para ver este vínculo]

Usershare:

[Tienes que estar registrado y conectado para ver este vínculo]
[Tienes que estar registrado y conectado para ver este vínculo]
[Tienes que estar registrado y conectado para ver este vínculo]

Uploadstation:

[Tienes que estar registrado y conectado para ver este vínculo]
[Tienes que estar registrado y conectado para ver este vínculo]
[Tienes que estar registrado y conectado para ver este vínculo]

Hotfile:

[Tienes que estar registrado y conectado para ver este vínculo]
[Tienes que estar registrado y conectado para ver este vínculo]
[Tienes que estar registrado y conectado para ver este vínculo]

x7:

[Tienes que estar registrado y conectado para ver este vínculo]
[Tienes que estar registrado y conectado para ver este vínculo]
[Tienes que estar registrado y conectado para ver este vínculo]

_________________
Cansado de los mismos temas espirituales?
Visita una web con un gran contenido,solo haz click sobre la imagen

[Tienes que estar registrado y conectado para ver este vínculo]

avatar
HECTOR JAVIER
Webmaster

Cantidad de envíos : 1281
Gracias : 6129
Reputación : 0
Fecha de inscripción : 27/02/2009
Edad : 45
Localización : Pereira colombia

Ver perfil de usuario http://bibliadeestudioadventista.es.tl

Volver arriba Ir abajo

Ver el tema anterior Ver el tema siguiente Volver arriba

- Temas similares

 
Permisos de este foro:
No puedes responder a temas en este foro.